Results 1 to 1 of 1
  1. #1
    Hot Member www.desirulez.me
    Join Date
    Jul 2010
    Posts
    1,548

    Default Boxing 2018 12 01 Deontay Wilder vs Tyson Fury Main Event 540p WEBRip x264-VLF

    Follow us on Social Media







    Boxing 2018 12 01 Deontay Wilder vs Tyson Fury Main Event 540p WEBRip x264-VLF



    Code:
    Boxing.2018.12.01.Deontay.Wilder.vs.Tyson.Fury.Main.Event.540p.WEBRip.x264-VLF
    
     Network: Showtime PPV
    
    
     Language: English
    
    
     Notes: Full Main Event including Fighter Entrance & Introduction, Post-Fight Interviews
    
    
     Credit: VLF
    
    
    General
    
    
     Complete name                            : Boxing.2018.12.01.Wilder.vs.Fury.Main.Event.SHO.720p.WEBRip.x264-VLF.mp4
    
    
     Format                                   : MPEG-4
    
    
     Format profile                           : Base Media
    
    
     Codec ID                                 : isom (isom/iso2/avc1/mp41)
    
    
     File size                                : 5.06 GiB
    
    
     Duration                                 : 1h 48mn
    
    
     Overall bit rate                         : 6 691 Kbps
    
    
     Encoded date                             : UTC 1904-01-01 00:00:00
    
    
     Tagged date                              : UTC 1904-01-01 00:00:00
    
    
     Writing application                      : Lavf57.83.100
    
    
    
    
    
    Video
    
    
     ID                                       : 1
    
    
     Format                                   : AVC
    
    
     Format/Info                              : Advanced Video Codec
    
    
     Format profile                           : [email protected]
    
    
     Format settings, CABAC                   : Yes
    
    
     Format settings, ReFrames                : 1 frame
    
    
     Format settings, GOP                     : M=1, N=100
    
    
     Codec ID                                 : avc1
    
    
     Codec ID/Info                            : Advanced Video Coding
    
    
     Duration                                 : 1h 48mn
    
    
     Bit rate                                 : 6 581 Kbps
    
    
     Width                                    : 1 280 pixels
    
    
     Height                                   : 720 pixels
    
    
     Display aspect ratio                     : 16:9
    
    
     Frame rate                               : 59.940 (59940/1000) fps
    
    
     Color space                              : YUV
    
    
     Chroma subsampling                       : 4:2:0
    
    
     Bit depth                                : 8 bits
    
    
     Scan type                                : Progressive
    
    
     Bits/(Pixel*Frame)                       : 0.119
    
    
     Stream size                              : 4.97 GiB (98%)
    
    
     Encoded date                             : UTC 1904-01-01 00:00:00
    
    
     Tagged date                              : UTC 1904-01-01 00:00:00
    
    
    
    
    
    Audio
    
    
     ID                                       : 2
    
    
     Format                                   : AAC
    
    
     Format/Info                              : Advanced Audio Codec
    
    
     Format profile                           : LC
    
    
     Codec ID                                 : 40
    
    
     Duration                                 : 1h 48mn
    
    
     Bit rate mode                            : Constant
    
    
     Bit rate                                 : 96.0 Kbps
    
    
     Channel(s)                               : 2 channels
    
    
     Channel positions                        : Front: L R
    
    
     Sampling rate                            : 48.0 KHz
    
    
     Frame rate                               : 46.875 fps (1024 spf)
    
    
     Compression mode                         : Lossy
    
    
     Stream size                              : 74.3 MiB (1%)
    
    
     Default                                  : Yes
    
    
     Alternate group                          : 1
    
    
     Encoded date                             : UTC 1904-01-01 00:00:00
    
    
     Tagged date                              : UTC 1904-01-01 00:00:00
    Code:
    http://www.filefactory.com/file/22nndhd1m3en/Boxing.2018.12.01.Wilder.vs.Fury.Main.Event.SHO.540p.WEBRip.x264-VLF.mp4
    
    http://uploaded.net/file/m55r9pul/Boxing.2018.12.01.Wilder.vs.Fury.Main.Event.SHO.540p.WEBRip.x264-VLF.mp4
    Code:
    http://www.filefactory.com/file/59pu9rzuilmf/boxing.part1.rar
    http://www.filefactory.com/file/3b4oq139ldi3/boxing.part2.rar
    
    https://openload.co/f/FbML3R48Oe8/boxing.part1.rar
    https://openload.co/f/1K9K0t5aJl0/boxing.part2.rar
     
    http://www.share-online.biz/dl/IYX6P3JPH4
    http://www.share-online.biz/dl/1Q55P3JPODK
     
    http://uploaded.net/file/olk67x87/boxing.part1.rar
    http://uploaded.net/file/qan31jx1/boxing.part2.rar

 

 

Tags for this Thread

Posting Permissions

  • You may not post new threads
  • You may not post replies
  • You may not post attachments
  • You may not edit your posts
  •